Foros Michael Jackson's HideOut  

Volver   Foros Michael Jackson's HideOut > Michael Jackson > Multimedia

Multimedia Los mejores videos, audios y descargas de la red sobre Michael Jackson en este subforo.

Like Tree9Me gusta
  • 4 Post escrito por mjluck
  • 1 Post escrito por cesar augusta
  • 1 Post escrito por Mabel Jackson
  • 1 Post escrito por kaoba
  • 1 Post escrito por joanajackson
  • 1 Post escrito por liznieves

Responder
 
LinkBack Herramientas del tema
  #1  
Antiguo 27-07-12, 15:34
Avatar de mjluck
HideOuter Hiperactivo
 
Fecha de registro: 28-01-10
Localización: Buenos Aires
Posts: 1.094
Whos Loving You 1969 HQ





Código:
Format                           : MPEG-PS
File size                        : 164 MiB
Duration                         : 3mn 12s
Overall bit rate                 : 7 123 Kbps

Video
ID                               : 224 (0xE0)
Format                           : MPEG Video
Format version                   : Version 2
Format profile                   : Main@Main
Format settings, BVOP            : Yes
Format settings, Matrix          : Default
Format settings, GOP             : M=3, N=7
Duration                         : 3mn 12s
Bit rate mode                    : Variable
Bit rate                         : 6 309 Kbps
Maximum bit rate                 : 8 600 Kbps
Width                            : 720 pixels
Height                           : 576 pixels
Display aspect ratio             : 4:3
Frame rate                       : 25.000 fps
Standard                         : PAL
Color space                      : YUV
Chroma subsampling               : 4:2:0
Bit depth                        : 8 bits
Scan type                        : Interlaced
Scan order                       : Top Field First
Compression mode                 : Lossy
Bits/(Pixel*Frame)               : 0.608
Stream size                      : 145 MiB (89%)

Audio #1
ID                               : 189 (0xBD)-128 (0x80)
Format                           : AC-3
Format/Info                      : Audio Coding 3
Mode extension                   : CM (complete main)
Muxing mode                      : DVD-Video
Duration                         : 3mn 12s
Bit rate mode                    : Constant
Bit rate                         : 224 Kbps
Channel(s)                       : 2 channels
Channel positions                : Front: L R
Sampling rate                    : 48.0 KHz
Bit depth                        : 16 bits
Compression mode                 : Lossy
Delay relative to video          : -152ms
Stream size                      : 5.14 MiB (3%)

Audio #2
ID                               : 189 (0xBD)-129 (0x81)
Format                           : AC-3
Format/Info                      : Audio Coding 3
Mode extension                   : CM (complete main)
Muxing mode                      : DVD-Video
Duration                         : 3mn 12s
Bit rate mode                    : Constant
Bit rate                         : 448 Kbps
Channel(s)                       : 6 channels
Channel positions                : Front: L C R, Side: L R, LFE
Sampling rate                    : 48.0 KHz
Bit depth                        : 16 bits
Compression mode                 : Lossy
Delay relative to video          : -248ms
Stream size                      : 10.3 MiB (6%)

Text #1
ID                               : 189 (0xBD)-32 (0x20)
Format                           : RLE
Format/Info                      : Run-length encoding
Muxing mode                      : DVD-Video
Duration                         : 3mn 9s
Delay relative to video          : 200ms

Text #2
ID                               : 189 (0xBD)-33 (0x21)
Format                           : RLE
Format/Info                      : Run-length encoding
Muxing mode                      : DVD-Video
Duration                         : 3mn 9s
Delay relative to video          : 200ms

Text #3
ID                               : 189 (0xBD)-34 (0x22)
Format                           : RLE
Format/Info                      : Run-length encoding
Muxing mode                      : DVD-Video
Duration                         : 3mn 9s
Delay relative to video          : 200ms

Text #4
ID                               : 189 (0xBD)-35 (0x23)
Format                           : RLE
Format/Info                      : Run-length encoding
Muxing mode                      : DVD-Video
Duration                         : 3mn 9s
Delay relative to video          : 200ms

Text #5
ID                               : 189 (0xBD)-36 (0x24)
Format                           : RLE
Format/Info                      : Run-length encoding
Muxing mode                      : DVD-Video
Duration                         : 3mn 9s
Delay relative to video          : 200ms

Text #6
ID                               : 189 (0xBD)-37 (0x25)
Format                           : RLE
Format/Info                      : Run-length encoding
Muxing mode                      : DVD-Video
Duration                         : 3mn 9s
Delay relative to video          : 200ms
02 Who's Loving You 1969.VOB
A simonrag, cesar augusta, mikabas y 1 más les gusta esto.
__________________
MJLukasHDvideos
Responder con cita
  #2  
Antiguo 27-07-12, 15:45
Avatar de cesar augusta
HideOuter ¡Invincible!
 
Fecha de registro: 21-05-08
Localización: Spain
Posts: 2.818
Re: Whos Loving You 1969 HQ

..uuuuh!
A mjluck le gusta esto.
__________________

Nalonso68 YouTube Channel
Responder con cita
  #3  
Antiguo 27-07-12, 16:07
Avatar de Mabel Jackson
I miss you...
 
Fecha de registro: 12-08-09
Localización: Argentina Buenos Aires
Posts: 11.664
Re: Whos Loving You 1969 HQ

Gracias Luck !!!!!!!
A mjluck le gusta esto.
__________________
Just.....you.
Responder con cita
  #4  
Antiguo 27-07-12, 16:24
Avatar de kaoba
HideOuter Hiperactivo
 
Fecha de registro: 10-09-11
Localización: Aviles-Asturias
Posts: 1.608
Re: Whos Loving You 1969 HQ

Gracias Mjluck!!!!!
A mjluck le gusta esto.
Responder con cita
  #5  
Antiguo 27-07-12, 18:14
Avatar de joanajackson
romance
 
Fecha de registro: 26-03-11
Localización: Brasil
Posts: 20.137
Re: Whos Loving You 1969 HQ

Gracias mjkuck
Qualidade excelente!!
A mjluck le gusta esto.
__________________
Responder con cita
  #6  
Antiguo 27-07-12, 20:38
Avatar de liznieves
Michael Jackson´s rules
 
Fecha de registro: 22-11-09
Localización: Neverland
Posts: 2.721
Re: Whos Loving You 1969 HQ

yeah! gracias!!
A mjluck le gusta esto.
__________________


Las modas son pasajeras, las leyendas son eternas
Responder con cita
Responder

Herramientas del tema

Reglas de escritura
no puedes crear temas nuevos
no puedes añadir respuestas
no puedes postear adjuntos
no puedes editar tus posts

Código BB está Activado
Los Smilies están Activado
El código [IMG] está Activado
El código HTML está Desactivado
Trackbacks are Activado
Pingbacks are Activado
Refbacks are Activado


Temas similares
Tema Autor del tema Foro Respuestas Último post
Petición: J5 Ed Sullivan Show 1969 y 1970 Blake Looper Multimedia 3 28-06-12 19:17
Descarga (Video) J5 @ Hollywood Palace (Oct 18 1969) [HQ] Dangerous Incorporated Multimedia 3 12-10-09 23:15
Cine: AYUDA! Necesito la peli del Ché de 1969 gacechino Ocio y cultura 8 15-10-08 01:00
"WHOS BAD NOW?" Aqui os dejo una imagen XULISIMA DE MJ! INOCENTE! Travolta Enciclopedia MJ 9 24-02-06 21:12
Whos Is It con el intro del espacial de Oprah para download..... Dr. Truko Promoción 7 11-01-02 16:51


Todas las horas son GMT +2. La hora actual es 18:13.


Powered by vBulletin® © 2000 - 2014, Jelsoft Enterprises Ltd.
Search Engine Friendly URLs by vBSEO
Copyright © 2001-2014 - mjhideout.com